즐겨찾기 | 현재접속자 (107) | 최근게시물
총 게시물 2,570건, 최근 13 건
   

[한글] 킹콩 King.Kong.2005.EXTENDED.CUT.1080p.BluRay.x264-CiNEFiLE

글쓴이 : 익명글쓴이 날짜 : 2017-11-14 (화) 11:48 조회 : 262
다운로드 : [한글] 킹콩 King.Kong.2005.EXTENDED.CUT.1080p.BluRay.x264-CiNEFiLE (4.3G)
171112 171113 171114 magnet, 사이트, 실시간, 유튜브


PG-13 | Action, Adventure, Drama

Video
ID                                       : 1
Format                                   : AVC
Format/Info                              : Advanced Video Codec
Format profile                           : [email protected]
Format settings, CABAC                   : Yes
Format settings, ReFrames                : 5 frames
Codec ID                                 : V_MPEG4/ISO/AVC
Duration                                 : 3h 20mn
Bit rate                                 : 9 441 Kbps
Width                                    : 1 920 pixels
Height                                   : 816 pixels
Display aspect ratio                     : 2.35:1
Frame rate mode                          : Constant
Frame rate                               : 23.976 fps
Color space                              : YUV
Chroma subsampling                       : 4:2:0
Bit depth                                : 8 bits
Scan type                                : Progressive
Bits/(Pixel*Frame)                       : 0.251
Stream size                              : 12.9 GiB (84%)
Writing library                          : x264 core 65 r1074 9d6cc8e
Encoding settings                        : cabac=1 / ref=5 / deblock=1:0:0 / analyse=0x3:0x113 / me=umh / subme=7 / psy_rd=1.0:0.0 / mixed_ref=1 / me_range=16 / chroma_me=1 / trellis=1 / 8x8dct=1 / cqm=0 / deadzone=21,11 / chroma_qp_offset=-2 / threads=6 / nr=0 / decimate=1 / mbaff=0 / bframes=3 / b_pyramid=1 / b_adapt=1 / b_bias=0 / direct=1 / wpredb=1 / keyint=250 / keyint_min=25 / scenecut=40(pre) / rc=2pass / bitrate=9441 / ratetol=1.0 / qcomp=0.60 / qpmin=10 / qpmax=51 / qpstep=4 / cplxblur=20.0 / qblur=0.5 / ip_ratio=1.40 / pb_ratio=1.30 / aq=1:1.00
Language                                 : English
Default                                  : Yes
Forced                                   : No

Audio
ID                                       : 2
Format                                   : DTS
Format/Info                              : Digital Theater Systems
Mode                                     : 16
Format settings, Endianness              : Big
Codec ID                                 : A_DTS
Duration                                 : 3h 20mn
Bit rate mode                            : Constant
Bit rate                                 : 1 509 Kbps
Channel(s)                               : 6 channels
Channel positions                        : Front: L C R, Side: L R, LFE
Sampling rate                            : 48.0 KHz
Frame rate                               : 93.750 fps (512 spf)
Bit depth                                : 24 bits
Compression mode                         : Lossy
Stream size                              : 2.11 GiB (14%)
Language                                 : English
Default                                  : Yes
Forced                                   : No

[한글] 킹콩 King.Kong.2005.EXTENDED.CUT.1080p.BluRay.x264-CiNEFiLE
[ 바로감상 ] [ 다운로드 ]

   

총 게시물 2,570건, 최근 13 건
번호 제목 날짜 조회
2570
09:48 7
2569
마피아에게 쫓기는 증인을 지켜야 하는마데아의 엉뚱발랄 가족코미디!월스트리트 투자 은행의 CFO 인 조…
09:48 5
2568
PG | Drama, Mystery, Sci-Fi Size ...... 10.94 GBDuration .. 2 h 29 minVideo ..... 1920x800p / x264 / 9818 kbps / 23.976 fpsAudio ..... Engl…
07:48 9
2567
Approved | Action, Adventure, Crime SIZE ...... 3.27 GBDURATION .. 1 h 22 minVIDEO ..... x264 / 1280x696p / 5065 Kbps / 23.976 fpsAUDIO ...…
04:48 8
2566
01:48 8
2565
01:48 7
2564
독교와 동양철학, 우주와 창조주, 인간에 대한 독특한 세계관이 표현 된 작품으로 ‘조도로프스키’ 감…
11-18 14
2563
특수부대에서 제대하고 귀향한 크리스 본(더 락). 아버지처럼 제재소에서 일하기를 원했던 그는 완전히 …
11-18 15
2562
11-18 15
2561
11-18 13
2560
어느 북쪽 마을인 후빌(Whoville) 사람들은 온통 크리스마스에 대한 기대에 들떠있다. 크럼피트 산의 꼭대…
11-18 10
2559
         1881년! 중국의 공주가 미국으로 납치되고 납치범들은 공주의 몸 값으로 엄청난 돈을 요구한…
11-18 6
2558
NR | Animation, Adventure, Family VideoID                                       : 1Format      …
11-18 7
2557
G | Action, Western(Duration): 1h 46mn(FileSize): 1.78 GiBVideo(Format): AVC - Advanced Video Codec(Format): x264(Resolution): 1280x546p(As…
11-18 34
2556
NR | Action, Western(Duration): 1h 35mn(FileSize): 1.64 GiBVideo(Format): AVC - Advanced Video Codec(Format): x264(Resolution): 1280x546p(A…
11-18 27
2555
PG-13 | Action, Comedy, Crime (Duration): 1h 28mn(FileSize): 1.98 GiBVideo(Format): AVC - Advanced Video Codec(Format): x264(Resolution): 1…
11-18 26
2554
에드(Ed Gentry: 존 보이트 분)와 루이스(Lewis Medlock: 버트 레이놀즈 분) 등은 주말을 이용, 댐공사로 수몰될 …
11-18 41
2553
 남자들은 모두 마피아를 꿈꾸고, 여자들은 몸 파는데 여념이 없으며, 경찰은 부패했고, 갱스터들은 당…
11-18 40
2552
11-18 24
2551
11-18 23
 1  2  3  4  5  6  7  8  9  10  다음  맨끝