즐겨찾기 | 현재접속자 (107) | 최근게시물
총 게시물 2,570건, 최근 13 건
   

[한글] 터미네이터 The Terminator 1984 1080p Bluray x265 10Bit AAC 5.1 - GetSchwifty

글쓴이 : 익명글쓴이 날짜 : 2017-11-10 (금) 01:48 조회 : 340
다운로드 : [한글] 터미네이터 The Terminator 1984 1080p Bluray x265 10Bit AAC 5.1 - GetSchwifty (2.6G)
171108 171109 171110 유투브, 쥬비디오, 홈페이지, 공유
https://s1.postimg.org/1b5yowl327/blu-ray-de-terminator-original.jpg


Source File:

The Terminator 1984 1080p CEE BluRay AVC DTS-HD 5.1-CHDBits 



Media Information:


Code:

General 
Complete name : The Terminator 1984 1080p Bluray x265 10Bit AAC 5.1 - GetSchwifty.mkv 
Format : Matroska 
Format version : Version 4 / Version 2 
File size : 2.98 GiB 
Duration : 1 h 47 min 
Overall bit rate : 3 989 kb/s 
Movie name : The Terminator 
Encoded date : UTC 2017-11-04 22:07:06 

Video 
ID : 1 
Format : HEVC 
Format/Info : High Efficiency Video Coding 
Format profile : Main [email protected]@Main 
Codec ID : V_MPEGH/ISO/HEVC 
Duration : 1 h 47 min 
Bit rate : 3 602 kb/s 
Width : 1 920 pixels 
Height : 1 040 pixels 
Display aspect ratio : 1.85:1 
Frame rate mode : Constant 
Frame rate : 23.976 (24000/1001) FPS 
Color space : YUV 
Chroma subsampling : 4:2:0 
Bit depth : 10 bits 
Bits/(Pixel*Frame) : 0.075 
Stream size : 2.69 GiB (90%) 

Audio 
ID : 2 
Format : AAC 
Format/Info : Advanced Audio Codec 
Format profile : LC 
Codec ID : A_AAC 
Duration : 1 h 47 min 
Bit rate : 288 kb/s 
Channel(s) : 6 channels 
Channel positions : Front: L C R, Side: L R, LFE 
Sampling rate : 48.0 kHz 
Frame rate : 46.875 FPS (1024 SPF) 
Compression mode : Lossy 
Delay relative to video : 9 ms 
Stream size : 225 MiB (7%) 
Title : English AAC VBR 5.1 
Default : No 
Forced : No 

Text #1 
ID : 3 
Format : PGS 
Muxing mode : zlib 
Codec ID : S_HDMV/PGS 
Codec ID/Info : Picture based subtitle format used on BDs/HD-DVDs 
Duration : 1 h 43 min 
Bit rate : 17.6 kb/s 
Count of elements : 1132 
Stream size : 13.0 MiB (0%) 
Language : English 
Default : No 
Forced : No 

2029년 로스 엔젤레스(Los Angeles 2029 A.D. ), 핵전쟁(The Nuclear)의 잿더미 속에서 기계들(The Machines)이 일어섰다. 기계들은 인류를 말살하기 위해 수십년간 치열한 소탕전을 벌였다. 그러나 마지막 전투를 위해 예비된 시점은 미래가 아닌 우리가 살고 있는 이곳의 현재, 바로 오늘밤이었다.1997년, 인간이 만든 인공지능 컴퓨터 전략 방어 네트워크가 스스로의 지능을 갖추고는 인류를 핵전쟁의 참화을 일으켜 30억이라는 인류를 잿더미 속에 묻어버린다. 그리고 남은 인간들은 기계의 지배를 받아 시체를 처리하는 일 등에 동원된다. 이때 비상한 지휘력과 작전으로 인간들을 이끌던 사령관 존 코너는 반기계 연합을 구성, 기계와의 전쟁을 시작하면서 상황은 반전된다. 이에 기계는 존 코너의 탄생 자체를 막기위해, 2029년의 어느 날, 타임머신에 터미네이터를 태워서 1984년의 L.A. 로 보내게 된다.

[한글] 터미네이터 The Terminator 1984 1080p Bluray x265 10Bit AAC 5.1 - GetSchwifty
[ 바로감상 ] [ 다운로드 ]

   

총 게시물 2,570건, 최근 13 건
번호 제목 날짜 조회
2570
09:48 7
2569
마피아에게 쫓기는 증인을 지켜야 하는마데아의 엉뚱발랄 가족코미디!월스트리트 투자 은행의 CFO 인 조…
09:48 5
2568
PG | Drama, Mystery, Sci-Fi Size ...... 10.94 GBDuration .. 2 h 29 minVideo ..... 1920x800p / x264 / 9818 kbps / 23.976 fpsAudio ..... Engl…
07:48 9
2567
Approved | Action, Adventure, Crime SIZE ...... 3.27 GBDURATION .. 1 h 22 minVIDEO ..... x264 / 1280x696p / 5065 Kbps / 23.976 fpsAUDIO ...…
04:48 8
2566
01:48 8
2565
01:48 7
2564
독교와 동양철학, 우주와 창조주, 인간에 대한 독특한 세계관이 표현 된 작품으로 ‘조도로프스키’ 감…
11-18 14
2563
특수부대에서 제대하고 귀향한 크리스 본(더 락). 아버지처럼 제재소에서 일하기를 원했던 그는 완전히 …
11-18 15
2562
11-18 15
2561
11-18 13
2560
어느 북쪽 마을인 후빌(Whoville) 사람들은 온통 크리스마스에 대한 기대에 들떠있다. 크럼피트 산의 꼭대…
11-18 10
2559
         1881년! 중국의 공주가 미국으로 납치되고 납치범들은 공주의 몸 값으로 엄청난 돈을 요구한…
11-18 6
2558
NR | Animation, Adventure, Family VideoID                                       : 1Format      …
11-18 7
2557
G | Action, Western(Duration): 1h 46mn(FileSize): 1.78 GiBVideo(Format): AVC - Advanced Video Codec(Format): x264(Resolution): 1280x546p(As…
11-18 34
2556
NR | Action, Western(Duration): 1h 35mn(FileSize): 1.64 GiBVideo(Format): AVC - Advanced Video Codec(Format): x264(Resolution): 1280x546p(A…
11-18 27
2555
PG-13 | Action, Comedy, Crime (Duration): 1h 28mn(FileSize): 1.98 GiBVideo(Format): AVC - Advanced Video Codec(Format): x264(Resolution): 1…
11-18 26
2554
에드(Ed Gentry: 존 보이트 분)와 루이스(Lewis Medlock: 버트 레이놀즈 분) 등은 주말을 이용, 댐공사로 수몰될 …
11-18 41
2553
 남자들은 모두 마피아를 꿈꾸고, 여자들은 몸 파는데 여념이 없으며, 경찰은 부패했고, 갱스터들은 당…
11-18 40
2552
11-18 24
2551
11-18 23
 1  2  3  4  5  6  7  8  9  10  다음  맨끝