즐겨찾기 | 현재접속자 (117) | 최근게시물
총 게시물 2,127건, 최근 18 건
   

[한글] 터칭 더 보이드 Touching.the.Void.2003.BluRay.1080p.x264.AAC.5.1.-.Hon3y

글쓴이 : 익명글쓴이 날짜 : 2017-10-12 (목) 21:48 조회 : 90
다운로드 : [한글] 터칭 더 보이드 Touching.the.Void.2003.BluRay.1080p.x264.AAC.5.1.-.Hon3y (3.0G)
171010 171011 171012 마그넷, 바로보기, 공유, 유투브

 

Format : Matroska 
Format version : Version 4 / Version 2 
File size : 2.47 GiB 
Duration : 1 h 46 min 
Overall bit rate : 3 331 kb/s 
Movie name : Touching the Void 

Video 
ID : 1 
Format : AVC 
Format/Info : Advanced Video Codec 
Format profile : [email protected] 
Format settings, CABAC : Yes 
Format settings, RefFrames : 5 frames 
Codec ID : V_MPEG4/ISO/AVC 
Duration : 1 h 46 min 
Bit rate : 3 000 kb/s 
Width : 1 920 pixels 
Height : 1 080 pixels 
Display aspect ratio : 16:9 
Frame rate mode : Constant 
Frame rate : 23.976 (24000/1001) FPS 

Audio 
ID : 2 
Format : AAC 
Format/Info : Advanced Audio Codec 
Format profile : LC 
Codec ID : A_AAC 
Duration : 1 h 46 min 
Bit rate : 320 kb/s 
Channel(s) : 6 channels 
Channel positions : Front: L C R, Side: L R, LFE 
Sampling rate : 48.0 kHz 
Frame rate : 46.875 FPS (1024 SPF) 
Compression mode : Lossy 
Delay relative to video : -21 ms 
Stream size : 243 MiB (10%) 
Title : Surround 
Language : English 
Default : Yes 
Forced : No 

Text 
ID : 3 
Format : PGS 
Muxing mode : zlib 
Codec ID : S_HDMV/PGS 
Codec ID/Info : Picture based subtitle format used on BDs/HD-DVDs 
Duration : 1 h 42 min 
Bit rate : 39.1 kb/s 
Count of elements : 2348 
Stream size : 28.6 MiB (1%) 
Language : English 
Default : No 
Forced : No 

산악소설로 잘 알려진 영국의 실화소설 <허공 만지기 Touching the Void>를 다큐멘터리로 만든 작품. 
원작소설의 저자이기도 한 산악인 조 심슨이 6300m가 넘는 페루의 시울라 그란데 정상에 도전하는 실화를 다루고 있다.

 
 
 
[한글] 터칭 더 보이드 Touching.the.Void.2003.BluRay.1080p.x264.AAC.5.1.-.Hon3y
[ 바로감상 ] [ 다운로드 ]

   

총 게시물 2,127건, 최근 18 건
번호 제목 날짜 조회
2127
그 남자의 첫사랑, 그녀의 영원한 사랑뉴욕의 레스토랑 주인인 윌 케인(Will: 리차드 기어 분)은 50에 가까…
04:48 10
2126
아래 분유값과 동일한 영화입니다...일단 아래영상이 시드도 느리고 용량도 11.29G로 커서 비교적 3.45G로 …
04:48 9
2125
줄거리광활한 우주,극한의 공포! 정체불명의 강력한 놈이 숨통을 조여온다! 달에 세워진 우주 탐사 기지…
04:48 10
2124
줄거리역사가 기록하지 못한 마리 앙투아네트의 마지막 사랑 바스티유 감옥의 습격과 함께 시민들이 직…
04:48 8
2123
UFO로 추정되는 존재들이 세계 곳곳에 남긴 흔적들이 발견되고 일단의 과학자들이 이를 추적하는 가운데,…
00:48 16
2122
“당신의 것일 때만 난 살아있어요”치명적인 유혹, 매혹적인 환희....곤충학자인 우아하고 세련된 중년 …
00:48 7
2121
자유를 갈망한 트리쉬나, 그런 그녀의 순수함을 사랑한 제이.파멸을 불러온 비극적인 사랑이 공개 된다.…
10-22 27
2120
10-22 29
2119
10-22 29
2118
10-22 22
2117
           강력한 악의 통치자 멤논이 소수 유목민족들을 위협해 고모라에 새로운 제국을 건설하…
10-22 22
2116
택배기사로 일하는 타이거(타이거 후 첸)는 링쿵 태극권의 유일한 계승자이다. 그는 태극권이 단지 보여…
10-22 15
2115
10-22 14
2114
10-22 14
2113
때는 1825년, 영국의 한 관료가 인디언들에게 납치된다. 그는 그들의 생활에 적응해나가고, 결국 부족의 …
10-22 13
2112
Not Rated | Action, Horror | 3 January 2013 (Indonesia)FORMAT..............: MP4CODEC...............: X264FILE SIZE...........: 1.44 GBRESO…
10-22 31
2111
PG | Adventure, Drama, Family | 20 July 1984 (USA) VideoID                                       : 1F…
10-22 29
2110
R | Horror, Thriller | 18 June 2002 (video premiere) (USA) VideoID                                    …
10-22 29
2109
R | Horror | 16 October 2015 (USA) VideoID                                       : 1Format     …
10-22 36
2108
PG-13 | Documentary, Crime | 5 June 2015 (USA)  Format                                   : MatroskaForma…
10-22 37
 1  2  3  4  5  6  7  8  9  10  다음  맨끝