즐겨찾기 | 현재접속자 (126) | 최근게시물
총 게시물 2,127건, 최근 18 건
   

[한글] 뉴스보이 Newsies.1992.720p.BluRay.x264-x0r.mkv

글쓴이 : 익명글쓴이 날짜 : 2017-10-03 (화) 06:48 조회 : 271
다운로드 : [한글] 뉴스보이 Newsies.1992.720p.BluRay.x264-x0r.mkv (2.2G)
171001 171002 171003 무료, 다운, magnet, 토렌트


PG | Drama, Family, History | 10 April 1992 (USA)


Format : Matroska
Format version : Version 4 / Version 2
File size : 2.72 GiB
Duration : 2 h 1 min
Overall bit rate : 3202 kb/s
Movie name : Newsies.1992.720p.BluRay.x264-x0r
Encoded date : UTC 2017-10-02 17:21:34
Writing application : mkvmerge v7.7.0 (Six Voices) 64bit built on Mar 1 2015 01:50:05
Writing library : libebml v1.3.1 + libmatroska v1.4.2

Video
ID : 1
Format : AVC
Format/Info : Advanced Video Codec
Format profile : [email protected]
Format settings, CABAC : Yes
Format settings, ReFrames : 8 frames
Codec ID : V_MPEG4/ISO/AVC
Duration : 2 h 1 min
Bit rate : 2560 kb/s
Width : 1280 pixels
Height : 720 pixels
Display aspect ratio : 16:9
Frame rate mode : Constant
Frame rate : 23.976 FPS
Color space : YUV
Chroma subsampling : 4:2:0
Bit depth : 8 bits
Scan type : Progressive
Bits/(Pixel*Frame) : 0.116
Stream size : 2.17 GiB (80%)
Writing library : x264 core 148 r2643 5c65704
Encoding settings : cabac=1 / ref=8 / deblock=1:-2:-2 / analyse=0x3:0x113 / me=umh / subme=9 / psy=1 / psy_rd=1.00:0.25 / mixed_ref=1 / me_range=32 / chroma_me=1 / trellis=2 / 8x8dct=1 / cqm=0 / deadzone=21,11 / fast_pskip=1 / chroma_qp_offset=-4 / threads=12 / lookahead_threads=1 / sliced_threads=0 / nr=0 / decimate=1 / interlaced=0 / bluray_compat=0 / constrained_intra=0 / bframes=4 / b_pyramid=2 / b_adapt=2 / b_bias=0 / direct=3 / weightb=1 / open_gop=0 / weightp=2 / keyint=240 / keyint_min=24 / scenecut=40 / intra_refresh=0 / rc_lookahead=40 / rc=2pass / mbtree=1 / bitrate=2560 / ratetol=1.0 / qcomp=0.60 / qpmin=0 / qpmax=69 / qpstep=4 / cplxblur=20.0 / qblur=0.5 / vbv_maxrate=14000 / vbv_bufsize=14000 / nal_hrd=none / filler=0 / ip_ratio=1.40 / aq=1:1.00
Language : English
Default : Yes
Forced : No
Color range : Limited
Color primaries : BT.709
Transfer characteristics : BT.709
Matrix coefficients : BT.709

Audio #1
ID : 2
Format : AC-3
Format/Info : Audio Coding 3
Format settings, Endianness : Big
Codec ID : A_AC3
Duration : 2 h 1 min
Bit rate mode : Constant
Bit rate : 448 kb/s
Channel(s) : 6 channels
Channel positions : Front: L C R, Side: L R, LFE
Sampling rate : 48.0 kHz
Frame rate : 31.250 FPS (1536 spf)
Bit depth : 16 bits
Compression mode : Lossy
Delay relative to video : -5 ms
Stream size : 389 MiB (14%)
Title : Surround
Language : English
Service kind : Complete Main
Default : Yes
Forced : No

Audio #2
ID : 3
Format : AC-3
Format/Info : Audio Coding 3
Format settings, Endianness : Big
Codec ID : A_AC3
Duration : 2 h 1 min
Bit rate mode : Constant
Bit rate : 192 kb/s
Channel(s) : 2 channels
Channel positions : Front: L R
Sampling rate : 48.0 kHz
Frame rate : 31.250 FPS (1536 spf)
Bit depth : 16 bits
Compression mode : Lossy
Stream size : 167 MiB (6%)
Title : Commentary
Language : English
Service kind : Complete Main
Default : No
Forced : No

Text
ID : 4
Format : UTF-8
Codec ID : S_TEXT/UTF8
Codec ID/Info : UTF-8 Plain Text
Duration : 2 h 0 min
Bit rate : 77 b/s
Count of elements : 1893
Stream size : 68.8 KiB (0%)
Language : English
Default : Yes
Forced : No

Menu
00:00:00.000 : :Chapter 1
00:01:36.972 : :Chapter 2
00:09:38.369 : :Chapter 3
00:15:34.767 : :Chapter 4
00:19:36.092 : :Chapter 5
00:25:58.640 : :Chapter 6
00:31:09.701 : :Chapter 7
00:39:55.268 : :Chapter 8
00:46:09.934 : :Chapter 9
00:51:31.589 : :Chapter 10
00:55:06.428 : :Chapter 11
00:59:31.026 : :Chapter 12
01:06:04.627 : :Chapter 13
01:08:56.507 : :Chapter 14
01:17:53.085 : :Chapter 15
01:22:57.139 : :Chapter 16
01:27:49.306 : :Chapter 17
01:34:14.190 : :Chapter 18
01:39:07.483 : :Chapter 19
01:44:15.916 : :Chapter 20
01:49:32.983 : :Chapter 21
01:53:33.557 : :Chapter 22


[한글] 뉴스보이 Newsies.1992.720p.BluRay.x264-x0r.mkv
[ 바로감상 ] [ 다운로드 ]

   

총 게시물 2,127건, 최근 18 건
번호 제목 날짜 조회
2127
그 남자의 첫사랑, 그녀의 영원한 사랑뉴욕의 레스토랑 주인인 윌 케인(Will: 리차드 기어 분)은 50에 가까…
04:48 10
2126
아래 분유값과 동일한 영화입니다...일단 아래영상이 시드도 느리고 용량도 11.29G로 커서 비교적 3.45G로 …
04:48 9
2125
줄거리광활한 우주,극한의 공포! 정체불명의 강력한 놈이 숨통을 조여온다! 달에 세워진 우주 탐사 기지…
04:48 10
2124
줄거리역사가 기록하지 못한 마리 앙투아네트의 마지막 사랑 바스티유 감옥의 습격과 함께 시민들이 직…
04:48 8
2123
UFO로 추정되는 존재들이 세계 곳곳에 남긴 흔적들이 발견되고 일단의 과학자들이 이를 추적하는 가운데,…
00:48 16
2122
“당신의 것일 때만 난 살아있어요”치명적인 유혹, 매혹적인 환희....곤충학자인 우아하고 세련된 중년 …
00:48 7
2121
자유를 갈망한 트리쉬나, 그런 그녀의 순수함을 사랑한 제이.파멸을 불러온 비극적인 사랑이 공개 된다.…
10-22 27
2120
10-22 29
2119
10-22 29
2118
10-22 22
2117
           강력한 악의 통치자 멤논이 소수 유목민족들을 위협해 고모라에 새로운 제국을 건설하…
10-22 22
2116
택배기사로 일하는 타이거(타이거 후 첸)는 링쿵 태극권의 유일한 계승자이다. 그는 태극권이 단지 보여…
10-22 15
2115
10-22 14
2114
10-22 14
2113
때는 1825년, 영국의 한 관료가 인디언들에게 납치된다. 그는 그들의 생활에 적응해나가고, 결국 부족의 …
10-22 13
2112
Not Rated | Action, Horror | 3 January 2013 (Indonesia)FORMAT..............: MP4CODEC...............: X264FILE SIZE...........: 1.44 GBRESO…
10-22 31
2111
PG | Adventure, Drama, Family | 20 July 1984 (USA) VideoID                                       : 1F…
10-22 29
2110
R | Horror, Thriller | 18 June 2002 (video premiere) (USA) VideoID                                    …
10-22 29
2109
R | Horror | 16 October 2015 (USA) VideoID                                       : 1Format     …
10-22 36
2108
PG-13 | Documentary, Crime | 5 June 2015 (USA)  Format                                   : MatroskaForma…
10-22 37
 1  2  3  4  5  6  7  8  9  10  다음  맨끝