즐겨찾기 | 현재접속자 (162) | 최근게시물
총 게시물 2,624건, 최근 17 건
   

[한글] 쉰들러 리스트 Schindlers List 1993 1080p Bluray x265 10Bit AAC 5.1 - GetSchwifty

글쓴이 : 익명글쓴이 날짜 : 2017-09-13 (수) 19:48 조회 : 442
다운로드 : [한글] 쉰들러 리스트 Schindlers List 1993 1080p Bluray x265 10Bit AAC 5.1 - GetSchwifty (2.6G)
170911 170912 170913 마그넷, magnet, 무료, 사이트

Source File:

Schindlers List 1993 1080p FRA BluRay AVC DTS-HD MA 5.1 - NOGROUP 



Media Information:


Code:

General 
Complete name : Schindlers List 1993 1080p Bluray x265 10Bit AAC 5.1 - GetSchwifty.mkv 
Format : Matroska 
Format version : Version 4 / Version 2 
File size : 6.91 GiB 
Duration : 3 h 15 min 
Overall bit rate : 5 071 kb/s 
Movie name : Schindlers List 
Encoded date : UTC 2017-09-12 02:44:04 

Video 
ID : 1 
Format : HEVC 
Format/Info : High Efficiency Video Coding 
Format profile : Main [email protected]@Main 
Codec ID : V_MPEGH/ISO/HEVC 
Duration : 3 h 15 min 
Bit rate : 4 631 kb/s 
Width : 1 920 pixels 
Height : 1 040 pixels 
Display aspect ratio : 1.85:1 
Frame rate mode : Constant 
Frame rate : 23.976 (24000/1001) FPS 
Color space : YUV 
Chroma subsampling : 4:2:0 
Bit depth : 10 bits 
Bits/(Pixel*Frame) : 0.097 
Stream size : 6.31 GiB (91%) 

Audio 
ID : 2 
Format : AAC 
Format/Info : Advanced Audio Codec 
Format profile : LC 
Codec ID : A_AAC 
Duration : 3 h 15 min 
Bit rate : 369 kb/s 
Channel(s) : 6 channels 
Channel positions : Front: L C R, Side: L R, LFE 
Sampling rate : 48.0 kHz 
Frame rate : 46.875 FPS (1024 SPF) 
Compression mode : Lossy 
Delay relative to video : 9 ms 
Stream size : 515 MiB (7%) 
Title : English AAC VBR 5.1 
Language : English 
Default : Yes 
Forced : No 

“왜 나는 더 많은 유태인들을 구해내지 못하였는가?”

1939년 9월 독일군의 폴란드 점령과 함께 오스카 쉰들러는 폴란드의 크레코우로 이주해온다. 기회주의자에 호색한인 쉰들러는 전쟁중 나치와 결탁해 임금을 줄 필요가 없는 유대인을 공장의 인력으로 이용한다. 이때 만난 유대인 회계사 아이작 스턴은 쉰들러의 내면에 숨어 있던 양심을 일깨워준다. 유대인들에 대한 박해가 심해지자 쉰들러는 그들을 강제수용소에서 구해내기로 결심한다. 수용소 장교에게 뇌물을 주고 유대인들을 자신의 고향으로 옮길 계획을 세운 쉰들러는 스턴과 함께 구출할 유대인 명단을 작성한다. 
[한글] 쉰들러 리스트 Schindlers List 1993 1080p Bluray x265 10Bit AAC 5.1 - GetSchwifty
[ 바로감상 ] [ 다운로드 ]

   

총 게시물 2,624건, 최근 17 건
번호 제목 날짜 조회
2624
14:48 0
2623
14:48 1
2622
Animation, FamilyVideoID                                       : 1Format              …
13:48 2
2621
Animation, Comedy, Drama(Duration): 24mn 18s(FileSize): 523 MiBVideo(Format): AVC - Advanced Video Codec(Format): x264(Resolution): 1280x72…
07:48 7
2620
R | Crime, Drama, Mystery Format                      : MatroskaFormat version              : Version 4 /…
07:48 6
2619
PG | Adventure, Comedy, FantasyFormat : MatroskaFormat version : Version 4 / Version 2File size : 2.79 GiBDuration : 1h 46mnOverall bit rat…
07:48 7
2618
Action, ComedyFormat                      : MatroskaFormat version              : Version 4 / Version 2Fi…
07:48 7
2617
메이필드(Mayfield) 마을에 사는 레이 피터슨(Ray Peterson: 톰 행크스 분)은 휴가를 집에서 보내기로 작정하게 …
02:48 26
2616
          19세기 비엔나의 한 도시에서는 홀연히 나타나 사람들의 눈과 귀를 사로 잡고 있는 마술사…
11-22 29
2615
11-22 36
2614
<iframe width="560" height="315" src="https://www.youtube.com/embed/w_pU1SkoPQc" frameborder="0"></iframe>
11-22 36
2613
에이리언 1-4편 스페셜 에디션 입니다용량 대비 화질은 인정받는 ETRG 릴 이라서 소장용으로도 좋을 것 같…
11-22 37
2612
  정부의 과학 실험대상에 응했다가 본의 아니게 초능력이 생긴 앤디(Andrew McGee: 데이빗 키스 분)와 그의 …
11-22 18
2611
미지의 세계... 위험한 여정... 상상을 초월하는 모험쿵푸 매니아인 평범한 미국 고등학생 제이슨(마이클 …
11-22 9
2610
줄거리액션의 절대 강자 ‘성룡’과 엽문 ‘황추생’의 만남!납치된 아버지를 구하기 위해 절대 고수들…
11-22 8
2609
11-22 10
2608
11-22 8
2607
NR | Animation, Short, Comedy (Duration): 24mn 19s(FileSize): 524 MiBVideo(Format): AVC - Advanced Video Codec(Format): x264(Resolution): 1…
11-22 31
2606
NR | Animation, Short, Comedy (Duration): 25mn 16s(FileSize): 544 MiBVideo(Format): AVC - Advanced Video Codec(Format): x264(Resolution): 1…
11-22 27
2605
R | Animation, Drama, Fantasy(Duration): 1h 40mn(FileSize): 2.39 GiBVideo(Format): AVC - Advanced Video Codec(Format): x264(Resolution): 12…
11-22 33
 1  2  3  4  5  6  7  8  9  10  다음  맨끝