즐겨찾기 | 현재접속자 (147) | 최근게시물
총 게시물 1,492건, 최근 25 건
   

[한글] 쉰들러 리스트 Schindlers List 1993 1080p Bluray x265 10Bit AAC 5.1 - GetSchwifty

글쓴이 : 익명글쓴이 날짜 : 2017-09-13 (수) 19:48 조회 : 93
다운로드 : [한글] 쉰들러 리스트 Schindlers List 1993 1080p Bluray x265 10Bit AAC 5.1 - GetSchwifty (4.5G)
170911 170912 170913 magnet, torrent, 다운로드, 유투브

Source File:

Schindlers List 1993 1080p FRA BluRay AVC DTS-HD MA 5.1 - NOGROUP 



Media Information:


Code:

General 
Complete name : Schindlers List 1993 1080p Bluray x265 10Bit AAC 5.1 - GetSchwifty.mkv 
Format : Matroska 
Format version : Version 4 / Version 2 
File size : 6.91 GiB 
Duration : 3 h 15 min 
Overall bit rate : 5 071 kb/s 
Movie name : Schindlers List 
Encoded date : UTC 2017-09-12 02:44:04 

Video 
ID : 1 
Format : HEVC 
Format/Info : High Efficiency Video Coding 
Format profile : Main [email protected]@Main 
Codec ID : V_MPEGH/ISO/HEVC 
Duration : 3 h 15 min 
Bit rate : 4 631 kb/s 
Width : 1 920 pixels 
Height : 1 040 pixels 
Display aspect ratio : 1.85:1 
Frame rate mode : Constant 
Frame rate : 23.976 (24000/1001) FPS 
Color space : YUV 
Chroma subsampling : 4:2:0 
Bit depth : 10 bits 
Bits/(Pixel*Frame) : 0.097 
Stream size : 6.31 GiB (91%) 

Audio 
ID : 2 
Format : AAC 
Format/Info : Advanced Audio Codec 
Format profile : LC 
Codec ID : A_AAC 
Duration : 3 h 15 min 
Bit rate : 369 kb/s 
Channel(s) : 6 channels 
Channel positions : Front: L C R, Side: L R, LFE 
Sampling rate : 48.0 kHz 
Frame rate : 46.875 FPS (1024 SPF) 
Compression mode : Lossy 
Delay relative to video : 9 ms 
Stream size : 515 MiB (7%) 
Title : English AAC VBR 5.1 
Language : English 
Default : Yes 
Forced : No 

“왜 나는 더 많은 유태인들을 구해내지 못하였는가?”

1939년 9월 독일군의 폴란드 점령과 함께 오스카 쉰들러는 폴란드의 크레코우로 이주해온다. 기회주의자에 호색한인 쉰들러는 전쟁중 나치와 결탁해 임금을 줄 필요가 없는 유대인을 공장의 인력으로 이용한다. 이때 만난 유대인 회계사 아이작 스턴은 쉰들러의 내면에 숨어 있던 양심을 일깨워준다. 유대인들에 대한 박해가 심해지자 쉰들러는 그들을 강제수용소에서 구해내기로 결심한다. 수용소 장교에게 뇌물을 주고 유대인들을 자신의 고향으로 옮길 계획을 세운 쉰들러는 스턴과 함께 구출할 유대인 명단을 작성한다. 
[한글] 쉰들러 리스트 Schindlers List 1993 1080p Bluray x265 10Bit AAC 5.1 - GetSchwifty
[ 바로감상 ] [ 다운로드 ]

   

총 게시물 1,492건, 최근 25 건
번호 제목 날짜 조회
1492
줄거리더욱 섹시하고 더욱 강해진 그녀들의 임무가 시작된다!2003년 여름 더욱 강하고 섹시해진 그녀들이…
16:48 6
1491
줄거리2000년 겨울을 불태울 뜨거운 여자들이 온다!!미녀 삼총사 나탈리(카메론 디아즈), 딜런(드류 베리…
16:48 4
1490
인간과 엘프, 오우거, 거인 등 모든 종족이 모여 사는 왕국엔 한 때 평화가 넘쳤지만, 선왕이 죽고 그의 …
16:48 7
1489
줄거리왕년에 잘나갔던... 한~물간거친 녀석들“나도 한땐 잘 나갔는데….”일상에 찌든 위기 남들의 유…
16:48 5
1488
16:48 4
1487
16:48 3
1486
16:48 2
1485
PG-13 | Action, Crime, Drama | 16 July 2004 (USA) Format:  MatroskaFormat version:  Version 1File size:  7.95 GiBDuration:  1 h 54 minO…
09:48 15
1484
여고생 캐리는 병적일 정도로 독실한 신자인 어머니(파이퍼 로리)의 순결 강요와 친구들의 따돌림 속에…
03:48 19
1483
*자막싱크 1초 정도 빠르게클레멘스(프란츠 로고스키)는 고급호텔 스파에 마사지 치료사로 일하면서 호…
03:48 17
1482
09-19 35
1481
09-19 34
1480
09-19 29
1479
5 friends who are all married and know each other very well decide to rent a loft together. In this loft they meet their mistresses. Everyt…
09-19 29
1478
줄리안(줄리아 로버츠)과 마이클(더못 멀로니)은 과거 대학 시절 연인이었으나 이제는 9년 간이나 우정…
09-19 32
1477
줄거리목적지 없이 떠도는 당신의 인생 괜찮나요?1년 322일 여행을 하는 남자 그러나, 천만 마일을 날아도…
09-19 19
1476
09-19 23
1475
09-19 19
1474
Source File:A Knights Tale 2001 1080p BluRay REMUX MPEG-2 TrueHD 5.1-EPSiLON Media Information:Code:General Complete name : A Knights Tal…
09-19 24
1473
운명을 거부한 이들의 비극적 사랑이 시작된다... | 2004년 장예모 무협멜로중국 역사상 가장 황금기였던 …
09-19 24
 1  2  3  4  5  6  7  8  9  10  다음  맨끝