즐겨찾기 | 현재접속자 (113) | 최근게시물
총 게시물 2,570건, 최근 13 건
   

[한글] 글로리 로드 Glory.Road.2006.1080p.BluRay.x264.DTS-FGT

글쓴이 : 익명글쓴이 날짜 : 2017-10-04 (수) 23:48 조회 : 337
다운로드 : [한글] 글로리 로드 Glory.Road.2006.1080p.BluRay.x264.DTS-FGT (4.1G)
171002 171003 171004 바로보기, 다운, magnet, 마그넷

미국에서 흑인에 대한 인종차별이 만연하던 1960년대 미국 남부 텍사스주 만년 농구 하위 팀인 텍사스 웨스턴 대학의 농구팀 마이너스에 던 해스킨스 감독이 부임한다. 그는 부임하자마자 마이너스 팀을 대학 최강팀으로 만들기 위해서 뛰어난 기량을 갖춘 선수들을 스카우트하려고 한다. 그러나 우수한 선수들은 별볼일 없는 텍사스의 작은 대학에 오길 꺼려하고, 던 감독은 뛰어난 기량을 갖춘 흑인들을 발굴해서 스카웃을 제안한다. 당시 사회 분위기로 봐서는 감히 상상할 수 없는 일이었지만 젊고 패기에 가득찬 던 감독은 학교측을 설득해서 흑인 선수를 스카우트하는데 성공한다. 그러나 산 넘어 산이라고, 던 감독은 이들을 스카우트한 뒤에도 기존 멤버인 백인 선수들과 흑인 선수들을 하나로 융합시키는 것에서부터 화려한 개인기에 익숙한 흑인 선수들에게 착실한 기본기로 연습 시키는 것까지 무엇 하나 결코 만만한 것이 없다는 것을 깨닫게 된다. 그러나 던 해스킨스 감독의 탁월한 지도력과 선수들의 피나는 노력으로 하나가 된 이들은 마침내 1966년 미국대학농구 토너먼트에 진출해서 당시 대학 농구의 명문 팀이었던 켄터기 대학과 결승전에서 맞붙게 되는데...

미국의 농구 역사를 바꿔 놓은 감동적 실화! 

<글로리 로드>는 흑인에 대한 인종차별이 한창이던 1966년 미국 농구 역사상 최초로 흑인 선수들만을 스타팅 멤버로 내보내 미국대학농구 토너먼트(NCAA)에서 우승을 쟁취한 텍사스 웨스턴 대학 농구팀의 실화를 바탕으로 제작된 감동적인 스포츠 드라마이다. 특히 <글로리 로드>는 <진주만>, <아마게돈>, <캐리비안의 해적: 블랙펄의 저주>, <내셔널 트레져> 등 역대 흥행대작을 제작한 헐리웃의 마이다스의 손으로 불리우는 제리 브룩하이머가 제작을 맡으면서 촬영 전부터 세간의 화제가 되었던 작품이다. 

<글로리 로드>의 주요 출연진으로는 <스텔스>, <포세이돈>의 연기파 배우 조쉬 루카스가 미국 농구 역사에 새로운 획을 그은 텍사스 웨스턴 대학의 명코치 던 해스킨스 역을 맡아 카리스마 넘치는 열정적인 연기를 선보인다. 또한 <앤트원 피쉬>로 주목받는 차세대 스타로 떠올랐던 데렉 루크가 텍사스 웨스턴 대학의 농구팀 가드인 바비 조 힐 역을 맡아 실감나는 연기를 펼친다. 이외에도 <진주만>, <내셔널 트레져>의 존 보이트가 켄터기 대학의 명감독 아돌프 럽 역을 맡아 고집스럽지만 연륜이 묻어나는 자연스런 연기를 선사한다. <글로리 로드>의 감독은 CF 감독 출신으로 이번이 감독 데뷔작인 제임스 가트너가 담당했다.












Video
ID                                       : 1
Format                                   : AVC
Format/Info                              : Advanced Video Codec
Format profile                           : [email protected]
Format settings, CABAC                   : Yes
Format settings, ReFrames                : 7 frames
Codec ID                                 : V_MPEG4/ISO/AVC
Duration                                 : 1h 57mn
Bit rate                                 : 8 103 Kbps
Width                                    : 1 920 pixels
Height                                   : 800 pixels
Display aspect ratio                     : 2.40:1
Frame rate mode                          : Constant
Frame rate                               : 23.976 fps
Color space                              : YUV
Chroma subsampling                       : 4:2:0
Bit depth                                : 8 bits
Scan type                                : Progressive
Bits/(Pixel*Frame)                       : 0.220
Stream size                              : 6.52 GiB (82%)
Writing library                          : x264 core 56 svn-680
Encoding settings                        : cabac=1 / ref=4 / deblock=1:-3:-3 / analyse=0x3:0x133 / me=umh / subme=7 / brdo=1 / mixed_ref=1 / me_range=16 / chroma_me=1 / trellis=1 / 8x8dct=1 / cqm=2 / deadzone=21,11 / chroma_qp_offset=0 / threads=6 / nr=0 / decimate=1 / mbaff=0 / bframes=6 / b_pyramid=1 / b_adapt=1 / b_bias=0 / direct=3 / wpredb=1 / bime=1 / keyint=250 / keyint_min=25 / scenecut=40(pre) / rc=2pass / bitrate=8103 / ratetol=1.0 / rceq='blurCplx^(1-qComp)' / qcomp=0.60 / qpmin=10 / qpmax=51 / qpstep=4 / cplxblur=20.0 / qblur=0.5 / ip_ratio=1.40 / pb_ratio=1.30 / aq=1:0.3:15.0
Language                                 : English
Default                                  : Yes
Forced                                   : No

Audio
ID                                       : 2
Format                                   : DTS
Format/Info                              : Digital Theater Systems
Mode                                     : 16
Format settings, Endianness              : Big
Codec ID                                 : A_DTS
Duration                                 : 1h 58mn
Bit rate mode                            : Constant
Bit rate                                 : 1 510 Kbps
Channel(s)                               : 6 channels
Channel positions                        : Front: L C R, Side: L R, LFE
Sampling rate                            : 48.0 KHz
Bit depth                                : 24 bits
Compression mode                         : Lossy
Stream size                              : 1.24 GiB (16%)
Language                                 : English
Default                                  : Yes
Forced                                   : No
[한글] 글로리 로드 Glory.Road.2006.1080p.BluRay.x264.DTS-FGT
[ 바로감상 ] [ 다운로드 ]

   

총 게시물 2,570건, 최근 13 건
번호 제목 날짜 조회
2510
R | Action, Fantasy, HorrorFormat                      : MatroskaFormat version              : Version 4 …
11-14 208
2509
PG-13 | Drama, Mystery, RomanceFormat : MatroskaFormat version : Version 4 / Version 2File size : 2.46 GiBDuration : 1 h 49 minOverall bit …
11-14 178
2508
PG-13 | Comedy, Drama, RomanceFormat : MatroskaFormat version : Version 4 / Version 2File size : 2.17 GiBDuration : 1 h 52 minOverall bit r…
11-14 176
2507
PG-13 | Action, Adventure, Sci-FiFormat : MatroskaFormat version : Version 4 / Version 2File size : 2.50 GiBDuration : 1 h 59 minOverall bi…
11-14 173
2506
PG | Action, WesternFormat : MatroskaFormat version : Version 2File size : 1.76 GiBDuration : 1 h 40 minOverall bit rate : 2 518 kb/sMovie …
11-14 176
2505
50년 동안 충격적 비밀을 안고 살았던 필로미나가 아들을 찾기 위해 나섰다. 전직 BBC 기자 마틴은 이 흥미…
11-14 190
2504
줄거리허리케인에 맞선 48시간의 사투!Mission1: 사상 최악의 허리케인에 맞서 딸을 구해라!거대한 허리케…
11-14 188
2503
줄거리1억 1천불의 논스탑 액션 블럭버스터 9월, 모험이 시작된다!D-80, 지상최대의 미션에 도전하라!영웅 …
11-14 177
2502
약물을 통해 모든 인간들의 감정, 생각 등이 통제되고 있는 미래 사회, 인간은 로봇과 다를바 없이 제어…
11-14 176
2501
11-14 171
2500
미국 링컨국제공항의 매니저인 멜 베이커스펠드(버트 랭카스터 부)는 두 가지 난관에 봉착해있다. 하나…
11-14 162
2499
11-14 227
2498
11-14 163
2497
제3제국의 운명이 끝을 향해가고 있을 무렵, 타락한 이탈리아 귀족들 네 사람이 재미를 보기로 결정하고 …
11-13 232
2496
11-13 225
2495
11-13 221
2494
          월스트리트 투자은행가 샘은 애인 몰리와 멋진 아파트에서 새로운 생활을 시작한다. 이들…
11-13 205
2493
유럽 각지를 떠돌며 모든 계층의 여성들과 관계를 맺은 귀족 카사노바는 열정의 흔적을 찾아볼 수 없는 …
11-13 198
2492
비틀즈 음악이 창조해 낸 청춘, 그리고 그들이 새롭게 구성해 낸 33곡의 특별한 비틀즈 노래들!  ALL YOU NEE…
11-13 160
2491
PG-13 | DramaFormat : MatroskaFormat version : Version 4 / Version 2File size : 2.53 GiBDuration : 2 h 0 minOverall bit rate : 3 007 kb/sMo…
11-13 212
처음  1  2  3  4  5  6  7  8  9  10  다음  맨끝